The Crescent 2018 Movies DVDRip x264 AAC with Sample ☻rDX☻

seeders: 21
leechers: 5
updated:
Added by nehalpuja in Other


strongly advises you to use NordVPN while downloading torrents.
NordVPN is the safest VPN on the market, and the fastest VPN as well.
No IP Log is saved using NordVPN, avoid other VPN providers and choose the safest one.
Click here and buy NordVPN it's on rebates today!
We were able to verify your IP: 188.68.0.247 and country: United Kingdom.
If we can do that, others can too, protect your privacy with NordVPN.
is trying the best for you!


Description

The Crescent 2018 Movies DVDRip x264 AAC with Sample ☻rDX☻
===============================================================================================

SCREEN SHOTS:  

 

or

http://iphonehosting.eu/2018/7/buck/1.html  

File size : 693 MiB
Duration : 1 h 36 min
Overall bit rate : 1 000 kb/s
Movie name : The Crescent 2018 Movies DVDRip x264 AAC ☻rDX☻

Video
ID : 2
Format : MPEG-4 Visual
Format profile : Advanced [email protected] 
Format settings, BVOP : 2
Format settings, QPel : No
Format settings, GMC : No warppoints
Format settings, Matrix : Default (H.263)
Muxing mode : Packed bitstream
Codec ID : V_MS/VFW/FOURCC / XVID
Codec ID/Hint : XviD
Duration : 1 h 36 min
Bit rate : 852 kb/s
Width : 640 pixels
Height : 352 pixels
Display aspect ratio : 16:9
Frame rate mode : Constant
Frame rate : 23.976 (24000/1001) FPS
Color space : YUV
Chroma subsampling : 4:2:0
Bit depth : 8 bits
Scan type : Progressive
Compression mode : Lossy
Bits/(Pixel*Frame) : 0.158
Stream size : 591 MiB (85%)
Title : ☻rDX☻
Writing library : XviD 65
Default : Yes
Forced : No

Audio
ID : 1
Format : MPEG Audio
Format version : Version 1
Format profile : Layer 3
Mode : Joint stereo
Codec ID : A_MPEG/L3
Codec ID/Hint : MP3
Duration : 1 h 36 min
Bit rate mode : Constant
Bit rate : 128 kb/s
Channel(s) : 2 channels
Sampling rate : 48.0 kHz
Compression mode : Lossy
Stream size : 88.7 MiB (13%)
Title : ☻rDX☻
Writing library : LAME3.99r
Default : Yes
Forced : No

 

IMDB : http://www.imdb.com/title/tt6044156

Sharing Widget


Download torrent
Size: 705.7 MB
seeders:21
leechers:5
The Crescent 2018 Movies DVDRip x264 AAC with Sample ☻rDX☻ - (739980083 Bytes)



To share this torrent use the code below and insert it into comments, status messages, forum posts or your signature.

Torrent: The Crescent 2018 Movies DVDRip x264 AAC with Sample ☻rDX☻

Trackers

tracker name
udp://tracker.coppersurfer.tk:6969/announce
udp://tracker.leechers-paradise.org:6969/announce
udp://tracker.pirateparty.gr:6969/announce
udp://eddie4.nl:6969/announce
udp://tracker.zer0day.to:1337/announce
udp://9.rarbg.me:2710/announce
udp://9.rarbg.to:2710/announce
udp://public.popcorn-tracker.org:6969/announce
udp://p4p.arenabg.ch:1337/announce
udp://tracker.vanitycore.co:6969/announce
udp://ipv4.tracker.harry.lu:80/announce
udp://tracker.opentrackr.org:1337/announce
udp://p4p.arenabg.com:1337/announce
udp://shadowshq.yi.org:6969/announce
udp://tracker.zer0day.to:1337/announce
udp://tracker.leechers-paradise.org:6969/announce
udp://coppersurfer.tk:6969/announce
µTorrent compatible trackers list

Locations

name
KickassTorrents
Torrent hash: C30D70E5F110EACCF017391D89C9454E2EF73F2A

strongly advises you to use NordVPN while downloading torrents.
NordVPN is the safest VPN on the market, and the fastest VPN as well.
No IP Log is saved using NordVPN, avoid other VPN providers and choose the safest one.
Click here and buy NordVPN it's on rebates today!
We were able to verify your IP: 188.68.0.247 and country: United Kingdom.
If we can do that, others can too, protect your privacy with NordVPN.
is trying the best for you!

All Comments

*comments box temporarily disabled*
Report a bug